Free download movies from rapidgator, ul.to and etc.

Action

on Oct 31, 2014

Rebirth of Mothra 1996 iNTERNAL BDRip x264-WaLMaRT # IMDb : http://www.imdb.com/title/tt0117089/ Rating: 6.0 Genre: Action / Fantasy / Adventure Director: Okihiro Yoneda Writer:...

Download

Thriller

on Oct 31, 2014

The Babadook (2014) HDRip X264-PLAYNOW iNFO: http://www.imdb.com/title/tt2321549/ Storyline: A single mother, plagued by the violent death of her husband,...

Download

Drama

on Oct 31, 2014

The Babadook (2014) HDRip X264-PLAYNOW iNFO: http://www.imdb.com/title/tt2321549/ Storyline: A single mother, plagued by the violent death of her husband,...

Download

Recent Posts

The Babadook (2014) HDRip X264-AYNOW

title

The Babadook (2014) HDRip X264-PLAYNOW
iNFO:

http://www.imdb.com/title/tt2321549/

Storyline: A single mother, plagued by the violent death of her husband, battles with her son’s fear of a monster lurking in the house, but soon discovers a sinister presence all around her.
Language(s): English
Genre(s): Drama Horror Thriller
Size: 1230039056 bytes (1.15 GiB), duration: 01:33:33, avg.bitrate: 1753 kb/s
Audio: aac, 48000 Hz, stereo (eng)
Video: h264, yuv420p, 720×304, 23.98 fps(r) (und)
- My Upload.
- Working 100%.
- Interchangeable Links.
- Added 10% Recovery Record.
- Tested Archive After Compression.
- No Password Required.

http://fileparadox.in/qinywk07x5vt/tuanq82.The.Baba.2014.HDRip.X264-PLAYNOW.part1.rar

http://fileparadox.in/st323yiggx6s/tuanq82.The.Baba.2014.HDRip.X264-PLAYNOW.part2.rar

http://uploaded.net/file/mn8f8rm4/tuanq82.The.Baba.2014.HDRip.X264-PLAYNOW.part1.rar

http://uploaded.net/file/0ta9a05p/tuanq82.The.Baba.2014.HDRip.X264-PLAYNOW.part2.rar

http://xerver.co/sh4487ugcibl/tuanq82.The.Baba.2014.HDRip.X264-PLAYNOW.part1.rar

http://xerver.co/pi8x45eikogl/tuanq82.The.Baba.2014.HDRip.X264-PLAYNOW.part2.rar

DOWNLOAD AS FAST AS YOU CAN BEFE LiNKS GET DELETED BY DMCA
DON’T FGET TO REPLY iF YOU LiKE MY POST – THANK YOU
rapidgator.net:

First come First served.

title

Product: 48 hour premium membership

CU The Hobbit: Desolation of Smaug_EC_720p BR_1GB_SNG full

title

>>> ShAaNiG BRINGS YOU <<<

And So It Goes 2014 BRRip XviD AC3-EVO

title

A Walk Among the Tombstones 2014 HC HDRip XviD

title

A Walk Among the Tombstones 2014 KSUB HDRip XviD MP3-RARBG

Sin City A Dame to Kill For 2014 720p080p BluRay

title

Daawat-E-Ishq (2014) – 1CD – DVDRip – Hindi – x264 -

title

Daawat-E-Ishq (2014) – 1CD – DVDRip – Hindi – x264 – MP3 – Mafiaking
Ratings: 6.4/10
GENRE: Comedy Drama Romance
General
Unique ID : 233754483688046749083404871485548398492 (0xAFDB79D9A03F39C0ABFB4D016158079C)
Complete name : Daawat-E-Ishq (2014) – 1CD – DVDRip – Hindi – x264 – MP3 – Mafiaking – Team TellyTNT.mkv
Format : Matroska
Format version : Version 4 / Version 2
File size : 703 MiB
Duration : 1h 58mn
Overall bit rate : 830 Kbps
Movie name : Daawat-E-Ishq (2014) – 1CD – DVDRip – Hindi – x264 – MP3 – Mafiaking – Team TellyTNT
Encoded date : UTC 2014-10-30 10:46:52
Writing application : mkvmerge v7.0.0 (’Where We Going’) 64bit built on Jun 9 2014 15:16:27
Writing library : libebml v1.3.0 + libmatroska v1.4.1
Video
ID : 1
Format : AVC
Format/Info : Advanced Video Codec
Format profile : High@L4.1
Format settings, CABAC : Yes
Format settings, ReFrames : 4 frames
Codec ID : V_MPEG4/ISO/AVC
Duration : 1h 58mn
Bit rate : 700 Kbps
Width : 640 pixels
Height : 272 pixels
Display aspect ratio : 2.35:1
Frame rate mode : Constant
Frame rate : 29.970 fps
Color space : YUV
Chroma subsampling : 4:2:0
Bit depth : 8 bits
Scan type : Progressive
Bits/(Pixel*Frame) : 0.134
Stream size : 581 MiB (83%)
Title : Mafiaking
Default : Yes
Forced : No
Audio
ID : 2
Format : MPEG Audio
Format version : Version 1
Format profile : Layer 3
Mode : Joint stereo
Mode extension : MS Stereo
Codec ID : A_MPEG/L3
Codec ID/Hint : MP3
Duration : 1h 58mn
Bit rate mode : Constant
Bit rate : 128 Kbps
Channel(s) : 2 channels
Sampling rate : 48.0 KHz
Compression mode : Lossy
Delay relative to video : 181ms
Stream size : 108 MiB (15%)
Title : Mafiaking
Writing library : LAME3.99r
Language : Hindi
Default : Yes
Forced : No
Visit my Account to download more Games/Apps/Movies

If any link is dead please let me know. I’ll fix it ASAP
Backups Are Available , Dead Links can Be Replaced , Just Leave A Reply In The Thread .
Please Say Thanks and Also You Can Make Your Queries
rapidgator.net:

OB Rebirth of Mothra 1996 iNTERNAL BDRip x264-WaLMaRT

title

Rebirth of Mothra 1996 iNTERNAL BDRip x264-WaLMaRT
# IMDb :

http://www.imdb.com/title/tt0117089/

Rating: 6.0
Genre: Action / Fantasy / Adventure
Director: Okihiro Yoneda
Writer: Masumi Suetani / Tomoyuki Tanaka
Cast: Megumi Kobayashi / Sayaka Yamaguchi / Aki Hano / Kazuki Futami / Maya Fujisawa / Kenjir Nashimoto / Hitomi Takahashi / Hiroko Tanaka / Kykei Arakawa
Plot: A logging and mining company working in Northern Japan disrupts a set of magical seals buried undergound, causing the release of Death Ghidora, an enormous, three-headed monster that had previously wiped out all life on Mars and caused the extinction of the dinosaurs on Earth. When Death Ghidora begins sucking the life out of the environment, the only thing that can save the planet from destruction is Mothra, the giant flying insect.
# Info :
Size: 1.40 GiB
Duration: 01:46:18
Bitrate: 1892 kb/s
Audio: aac, 48000 Hz, stereo (jpn)
Video: 720×390
# Screenshots :
# Download Links :

Uploaded:

http://uploaded.net/file/vkmw2w4c/Rebirth_of_Mothra_1996_iNTERNAL_BDRip_x264_WaLMaRT_47.part1.rar

http://uploaded.net/file/1qn1lb4x/Rebirth_of_Mothra_1996_iNTERNAL_BDRip_x264_WaLMaRT_47.part2.rar

Rapidgator:
Oboom:

https://www.oboom.com/GX2XZZID/Rebirth_of_Mothra_1996_iNTERNAL_BDRip_x264_WaLMaRT_47.part1.rar

https://www.oboom.com/PZAZTWKZ/Rebirth_of_Mothra_1996_iNTERNAL_BDRip_x264_WaLMaRT_47.part2.rar

Please post a Thanks before you leave..
.
rapidgator.net: