Free download movies from rapidgator, ul.to and etc.

Action

on Oct 21, 2014

Release Name: Narx.2011.720p.BluRay.x264-STRATOS Size: 4.36 GB Plot: Based on a shocking true story. An undercover cop puts his life on the line to fight corruption in his...

Download

Recent Posts

Narx 2011 720p BluRay x264-RAT +

title

Release Name: Narx.2011.720p.BluRay.x264-STRATOS
Size: 4.36 GB
Plot: Based on a shocking true story. An undercover cop puts his life on the line to fight corruption in his department, while trying to take down the biggest Drug Kingpin of New York City. No one can be trusted as the body count rises.

Admission (2013) 720p BluRay x264 750MB

title

Rubber (2010) BDRip XVID AC3 HQ Hive-CM8 full

title

Rubber (2010) BDRip XVID AC3 HQ Hive-CM8

http://www.imdb.com/title/tt1612774/

Genre: Comedy, Drama, Horror, Mystery, Sci-Fi
Information:
Rating………………..: 5.7/10
Stars…………………: Stephen Spinella, Roxane Mesquida, Wings Hauser, See full cast and crew
Director…………….: Quentin Dupieux
Writers………………: Quentin Dupieux
Movie Plot:
When Robert, a tire, discovers his destructive telepathic powers, he soon sets his sights on a desert town; in particular, a mysterious woman becomes his obsession.

Source Bluray
look @imdb what this movie is about, its not a typical movie.
quote review: "better get high before watching"
Video: 720×400 @bitrate 1800 2pass
Audio: DTS to AC3 5.1 @448
Sample: yes included /b
General
Complete name : Rubber.2010.BDRip.XVID.AC3.HQ.Hive-CM8.avi
Format : AVI
Format/Info : Audio Video Interleave
File size : 1.25 GiB
Duration : 1h 18mn
Overall bit rate : 2 257 Kbps
Writing application : Nandub v1.0rc2
Writing library : Nandub build 1853/release
Video
ID : 0
Format : MPEG-4 Visual
Format profile : Advanced Simple@L5
Format settings, BVOP : Yes
Format settings, QPel : Yes
Format settings, GMC : No warppoints
Format settings, Matrix : Default (H.263)
Muxing mode : Packed bitstream
Codec ID : XVID
Codec ID/Hint : XviD
Duration : 1h 18mn
Bit rate : 1 800 Kbps
Width : 720 pixels
Height : 400 pixels
Display aspect ratio : 16:9
Frame rate : 25.000 fps
Color space : YUV
Chroma subsampling : 4:2:0
Bit depth : 8 bits
Scan type : Progressive
Bits/(Pixel*Frame) : 0.250
Stream size : 1 017 MiB (80%)
Writing library : XviD 1.2.1 (UTC 2008-12-04)
Audio
ID : 1
Format : AC-3
Format/Info : Audio Coding 3
Mode extension : CM (complete main)
Codec ID : 2000
Duration : 1h 18mn
Bit rate mode : Constant
Bit rate : 448 Kbps
Channel(s) : 6 channels
Channel positions : Front: L C R, Side: L R, LFE
Sampling rate : 48.0 KHz
Bit depth : 16 bits
Stream size : 253 MiB (20%)
Alignment : Split accross interleaves
Interleave, duration : 40 ms (1.00 video frame)
Interleave, preload duration : 500 ms
Stephen Spinella … Lieutenant Chad
Jack Plotnick… Accountant
Wings Hauser… Man in wheelchair
Roxane Mesquida… Sheila
Ethan Cohn… Film buff Ethan
Charley Koontz… Film buff Charley
Daniel Quinn… Dad
Devin Brochu… Son
When Robert, an inanimate tire, discovers his destructive telepathic powers,
he soon sets his sights on a desert town; in particular,
a mysterious woman becomes his obsession.
File: Rubber.2010.BDRip.XVID.AC3.HQ.Hive-CM8/Rubber.2010.BDRip.XVID.AC3.HQ.Hive.CM8.avi
Size: 1.25 GiB
Duration: 01:18:59
Avg.bitrate: 2257 kb/s
Audio: ac3, 48000 Hz, 5.1, s16, 448 kb/s
Video: mpeg4, yuv420p, 720×400, 25.00 fps(r)
.:Rapidgator DownLoad :.

rapidgator.net:

The Scribbler (2014) 720p BluRay x264 700MB

title

Saints Soldiers The Void (2014) 720p BluRay 699MB

title

Rise of the Planet of the Apes (2011) BRRip x264 AC3-RE

title

Rise of the Planet of the Apes (2011) BRRip x264 AC3-RE

http://www.imdb.com/title/tt1318514/

Genre: Action, Drama, Sci-Fi, Thriller
Information:
Rating………………..: 7.6/10
Stars…………………: James Franco, Andy Serkis, Freida Pinto, See full cast and crew
Director…………….: Rupert Wyatt
Writers………………: Rick Jaffa, Amanda Silver, and 1 more credit
Movie Plot:
A substance, designed to help the brain repair itself, gives rise to a super-intelligent chimp who leads an ape uprising.

NAME……………..: Rise of the Planet of the Apes
GENRE…………….: Action Drama Sci-Fi
PLOT……………..: During experiments to find a cure for
Alzheimer’s disease, a genetically-enhanced chimpanzee
uses its greater intelligence to lead other apes to freedom.

RATiNG……………: 7.8/10

RLS iNFO

RELEASE DATE………: 08/11/2011
SOURCE……………: Blu-Ray 720p
RUNTiME…………..: 1h 44mn
FiLE SiZE…………: 1.46 GiB
ViDEO CODEC……….: x2641536 Kbps
AUDiO CODEC……….: AC3448 Kbps6 Chan
FRAMERATE…………: 23.976 fps
BITS/PIXEL………..: 0.293
RESOLUTiON………..: 720×304
LANGUAGE………….: English
SUBTiTLES…………: Greek (muxed)
ENCODE BY…………: Robie2
File: Rise.of.the.Planet.of.the.Apes.2011.BRRip.x264.AC3-REMALiA/Rise.of.the.Planet.of.the.Apes.2011.BRRip.x264.AC3.REMALiA.mkv
Size: 1.46 GiB
Duration: 01:44:56
Avg.bitrate: 1986 kb/s
Audio: ac3, 48000 Hz, 6 channels, s16 (eng)
Video: h264, 720×304, 23.98 fps(r) (eng)
Subtitles: gre
.:Rapidgator DownLoad :.

rapidgator.net:

1F Wolves (2014) 720p W- Ganool 650MBink

title

1F Life of Crime (2013) 720p BluRay 700MBink

title